スポンサーサイト

 --------
上記の広告は1ヶ月以上更新のないブログに表示されています。
新しい記事を書く事で広告が消せます。
カテゴリ :スポンサー広告 トラックバック(-) コメント(-)

AIPTEK CAR CAMCORDER X3 を買ってみました。

 2012-12-30
綺麗画質のドライブレコーダーを買ってみました。

 
DSC_1109.jpg
AIPTEKのCAR CAMCORDER X3です。
日本ではドライブマン等のOEMがあります。これは製造元の台湾企業がAIPTEKの名前で発売してるもの、らしい。
Amazonで買いました。

EMS便で到着。5日後には手元に来ました。早いね。



DSC_1114.jpg
サクッと取り付け。ペタリと取り付け。
吸盤式の台座と、両面テープ式の台座が付属していて、両面テープの方がこぢんまりと設置できるのですがまずは暫定と言うことで吸盤で取り付けました。バックミラーからすこしはみ出てる。ちょっとかっこわるい。



画質はさすがの綺麗さ。H.264で1080pの30fpsで撮れるので今のところは最高画質ランクの製品です。
今度天気の良い日にドライブしたいなー。





Aiptek X3 1080p 30fps - 整備士さん重ステにうめく




上の動画はX3で撮ったファイルをそのままYoutubeにアップロードしました。どうやら音の変換が綺麗に行かないみたいです。ちょっと変な感じにエンコードされちゃっ­てます。ローカルで再生させたときの情報は下記。

Video: MPEG4 Video (H264) 1920x1080 29.97fps 9019kbps [Video 0]
Audio: AAC 48000Hz mono 128kbps [Audio 1]

Video
ID : 0
Format : AVC
Format/Info : Advanced Video Codec
Format profile : Main@L4.2
Format settings, CABAC : Yes
Format settings, ReFrames : 4 frames
Format settings, GOP : M=1, N=8
Codec ID : H264
Duration : 1mn 1s
Bit rate mode : Constant
Bit rate : 9 019 Kbps
Nominal bit rate : 45.0 Mbps
Width : 1,920 pixels
Height : 1,080 pixels
Display aspect ratio : 16:9
Frame rate : 29.970 fps
Color space : YUV
Chroma subsampling : 4:2:0
Bit depth : 8 bits
Scan type : Progressive
Bits/(Pixel*Frame) : 0.145
Stream size : 66.5 MiB (99%)

Audio
ID : 1
Format : AAC
Format/Info : Advanced Audio Codec
Format profile : LC
Codec ID : FF
Duration : 1mn 1s
Bit rate : 128 Kbps
Channel(s) : 1 channel
Channel positions : Front: C
Sampling rate : 48.0 KHz
Compression mode : Lossy
Stream size : 483 KiB (1%)
Alignment : Split accross interleaves
Interleave, duration : 21 ms (0.64 video frame)


 
コメント












管理者にだけ表示を許可する
トラックバック
トラックバックURL:
http://wbbwbb.blog83.fc2.com/tb.php/95-5266782d
≪ トップページへこのページの先頭へ  ≫
上記広告は1ヶ月以上更新のないブログに表示されています。新しい記事を書くことで広告を消せます。